[Fshare] Paris by Night 124 - Anh Cho Em Mùa Xuân (2018) [Bluray Rip MKV1080p-Full Chapter]

Thảo luận trong 'mHD, SD Video Clips' bắt đầu bởi coduocgidau, 11/2/18.

  1. coduocgidau

    coduocgidau Well-Known Member

    Tham gia ngày:
    14/11/12
    Bài viết:
    14,904
    Đã được cảm ơn:
    92,187
    Điểm thành tích:
    113
    Tiền:
    10,589 CR
    [Ca Nhạc] Paris by Night 124 - Anh Cho Em Mùa Xuân (2018) [Bluray Rip MKV1080p-Full Chapter]​

    [​IMG]

    [​IMG]

    [​IMG]
    Mã:

    [/B][/B]
    
    	

    [B][B]General Unique ID : 236428477622064560981455394534148644979 (0xB1DE77EE080F28D592BF168720C9A073) Complete name : E:\Converter\PBN 124-Bluray\Video\PBN124_BLURAY\PBN124 BLURAY.mkv Format : Matroska Format version : Version 2 File size : 15.6 GiB Duration : 5 h 47 min Overall bit rate mode : Constant Overall bit rate : 6 411 kb/s Movie name : PBN124_BLURAY.theatrical Encoded date : UTC 2018-02-11 09:28:54 Writing application : DVDFab 10.0.8.1 Writing library : libebml v1.3.4 + libmatroska v1.4.5 Video ID : 1 Format : AVC Format/Info : Advanced Video Codec Format profile : [email protected] Format settings : CABAC / 1 Ref Frames Format settings, CABAC : Yes Format settings, ReFrames : 1 frame Format settings, GOP : M=1, N=30 Codec ID : V_MPEG4/ISO/AVC Duration : 5 h 47 min Bit rate mode : Constant Bit rate : 6 215 kb/s Width : 1 920 pixels Height : 1 080 pixels Display aspect ratio : 16:9 Frame rate mode : Constant Frame rate : 29.970 (30000/1001) FPS Color space : YUV Chroma subsampling : 4:2:0 Bit depth : 8 bits Scan type : Progressive Bits/(Pixel*Frame) : 0.100 Stream size : 15.1 GiB (97%) Default : Yes Forced : No Color range : Limited Color primaries : BT.709 Transfer characteristics : BT.709 Matrix coefficients : BT.709 Audio ID : 2 Format : AC-3 Format/Info : Audio Coding 3 Codec ID : A_AC3 Duration : 5 h 47 min Bit rate mode : Constant Bit rate : 192 kb/s Channel(s) : 2 channels Channel positions : Front: L R Sampling rate : 48.0 kHz Frame rate : 31.250 FPS (1536 SPF) Bit depth : 16 bits Compression mode : Lossy Stream size : 478 MiB (3%) Language : English Service kind : Complete Main Default : Yes Forced : No Menu 00:00:00.000 : en:(01)00:00:00:000 00:08:22.335 : en:(02)00:08:22:335 00:10:04.003 : en:(03)00:10:04:003 00:18:33.612 : en:(04)00:18:33:612 00:24:58.129 : en:(05)00:24:58:129 00:29:46.417 : en:(06)00:29:46:417 00:48:12.222 : en:(07)00:48:12:222 00:52:58.074 : en:(08)00:52:58:074 01:09:32.668 : en:(09)01:09:32:668 01:18:07.549 : en:(10)01:18:07:549 01:28:02.343 : en:(11)01:28:02:343 01:32:41.522 : en:(12)01:32:41:522 01:37:18.165 : en:(13)01:37:18:165 01:43:03.477 : en:(14)01:43:03:477 01:50:26.820 : en:(15)01:50:26:820 02:00:31.524 : en:(16)02:00:31:524 02:04:20.019 : en:(17)02:04:20:019 02:12:57.703 : en:(18)02:12:57:703 02:19:55.320 : en:(19)02:19:55:320 02:25:42.266 : en:(20)02:25:42:266 02:30:46.570 : en:(21)02:30:46:570 02:38:15.919 : en:(22)02:38:15:919 02:42:48.525 : en:(23)02:42:48:525 02:49:18.815 : en:(24)02:49:18:815 03:20:46.667 : en:(25)03:20:46:667 03:25:12.400 : en:(26)03:25:12:400 03:33:09.977 : en:(27)03:33:09:977 03:42:42.015 : en:(28)03:42:42:015 03:49:28.287 : en:(29)03:49:28:287 03:57:07.012 : en:(30)03:57:07:012 04:31:36.580 : en:(31)04:31:36:580 04:45:57.540 : en:(32)04:45:57:540 04:54:04.159 : en:(33)04:54:04:159 04:59:21.510 : en:(34)04:59:21:510 05:08:41.102 : en:(35)05:08:41:102 05:16:48.756 : en:(36)05:16:48:756 05:23:33.360 : en:(37)05:23:33:360 05:31:31.838 : en:(38)05:31:31:838 05:36:39.846 : en:(39)05:36:39:846 05:41:02.308 : en:(40)05:41:02:308 05:44:35.888 : en:(41)05:44:35:888




     
    Chỉnh sửa cuối: 12/2/18
  2. hlttung

    hlttung New Member

    Tham gia ngày:
    26/11/09
    Bài viết:
    27
    Đã được cảm ơn:
    22
    Điểm thành tích:
    3
    Tiền:
    174 CR
     
    #2 +1 CR

Chia sẻ trang này